BT下载|动漫下载|动画|漫画 - 简单动漫

动漫bt下载 | 动画下载 | 动画片下载 | 资源搜索 | 发布资源 | 加入收藏

首页 » 日剧 » 【日影】[MagicStar] 风云儿信长 / 風雲児信長 1954 [WEBDL] [720p] [AMZN]【生】

基本信息

共享用户: 简单动漫

发布时间: 2023/01/25 08:49:21

更新时间: 无更新

分享情况: 做种 , 下载 , 完成

健 康 度: 0

点击此处下载种子

使用磁力链下载

Tracker信息

Announce:

http://tracker.36dm.club:2710/announce

Scrape:

http://tracker.36dm.club:2710/scrape

Announce list:
  • http://www.36dm.club:2710/announce
  • http://tracker.36dm.club:2710/announce

资源介绍

HD 720p from Prime Video. Use CBR bitrate mode.


We are planning to upload all prime video japan Dramas and Movies, we need your Support!


Support Us

Ali (Zhifubao / QR code): https://i.ibb.co/FWV2ggm/1660626347125.png PayPalMe: https://www.paypal.com/paypalme/sakuragikenji


alt textalt text

General Unique ID                      : 31232478884800071021026185832142777614 (0x177F28190BB66CE884AD6EC96098AD0E) Complete name                  : Fuunji.Nobunaga.1954.720p.AMZN.WEB-DL.DDP2.0.H.264-MagicStar.mkv Format                         : Matroska Format version                 : Version 4 File size                      : 3.06 GiB Duration                       : 1 h 30 min Overall bit rate mode          : Constant Overall bit rate               : 4 813 kb/s Encoded date                   : UTC 2023-01-24 20:37:06 Writing application            : mkvmerge v50.0.0 ('Awakenings') 64-bit Writing library                : libebml v1.4.0 + libmatroska v1.6.2 Cover                          : Yes Attachments                    : cover.png  Video ID                             : 1 Format                         : AVC Format/Info                    : Advanced Video Codec Format profile                 : [email protected] Format settings                : CABAC / 4 Ref Frames Format settings, CABAC         : Yes Format settings, Reference fra : 4 frames Codec ID                       : V_MPEG4/ISO/AVC Duration                       : 1 h 30 min Bit rate mode                  : Constant Bit rate                       : 4 587 kb/s Nominal bit rate               : 6 000 kb/s Width                          : 960 pixels Height                         : 720 pixels Display aspect ratio           : 4:3 Frame rate mode                : Constant Frame rate                     : 23.976 (24000/1001) FPS Color space                    : YUV Chroma subsampling             : 4:2:0 Bit depth                      : 8 bits Scan type                      : Progressive Bits/(Pixel*Frame)             : 0.277 Stream size                    : 2.91 GiB (95%) Default                        : Yes Forced                         : No Color range                    : Limited Color primaries                : BT.709 Transfer characteristics       : BT.709 Matrix coefficients            : BT.709  Audio ID                             : 2 Format                         : E-AC-3 Format/Info                    : Enhanced AC-3 Commercial name                : Dolby Digital Plus Codec ID                       : A_EAC3 Duration                       : 1 h 30 min Bit rate mode                  : Constant Bit rate                       : 224 kb/s Channel(s)                     : 2 channels Channel layout                 : L R Sampling rate                  : 48.0 kHz Frame rate                     : 31.250 FPS (1536 SPF) Compression mode               : Lossy Stream size                    : 146 MiB (5%) Title                          : 日本語 [オリジナル] Language                       : Japanese Service kind                   : Complete Main Default                        : Yes Forced                         : No

文件信息 文件总数:1,文件总大小:3.1GB

 
  • Folder [MagicStar] Fuunji Nobunaga 1954 [WEBDL] [720p] [AMZN]
    • 视频文件 Fuunji.Nobunaga.1954.720p.AMZN.WEB-DL.DDP2.0.H.264-MagicStar.mkv(3.1GB)
 

下载地址 磁力链接可以使用迅雷等主流软件进行下载

 
 

网友评论(0)

正在加载评论,请稍候......
发表我的看法(评论内容长度最多允许 1000 字)
评论内容
验证码