BT下载|动漫下载|动画|漫画 - 简单动漫

动漫bt下载 | 动画下载 | 动画片下载 | 资源搜索 | 发布资源 | 加入收藏

首页 » 日剧 » [MagicStar] 成为你的花 / 君の花になる EP07 [WEBDL] [1080p] [Netflix]【生】【附日字】

基本信息

共享用户: 简单动漫

发布时间: 2022/12/02 13:21:35

更新时间: 无更新

分享情况: 做种 , 下载 , 完成

健 康 度: 0

点击此处下载种子

使用磁力链下载

Tracker信息

Announce:

http://tracker.36dm.club:2710/announce

Scrape:

http://tracker.36dm.club:2710/scrape

Announce list:
  • http://www.36dm.club:2710/announce
  • http://tracker.36dm.club:2710/announce

资源介绍

HD 1080p from Netflix. Japanese subtitles added. alt text alt text

General Unique ID                      : 2782910332697048693387763161649750171 (0x217F812A0907EA9DDD4154C1BD1A09B) Complete name                  : Kimi.no.Hana.ni.Naru.EP07.1080p.NF.WEB-DL.DDP2.0.H.264-MagicStar.mkv Format                         : Matroska Format version                 : Version 4 File size                      : 2.32 GiB Duration                       : 46 min 43 s Overall bit rate mode          : Variable Overall bit rate               : 7 117 kb/s Encoded date                   : UTC 2022-12-02 00:03:54 Writing application            : mkvmerge v50.0.0 ('Awakenings') 64-bit Writing library                : libebml v1.4.0 + libmatroska v1.6.2 Cover                          : Yes Attachments                    : cover.png  Video ID                             : 1 Format                         : AVC Format/Info                    : Advanced Video Codec Format profile                 : High@L4 Format settings                : CABAC / 4 Ref Frames Format settings, CABAC         : Yes Format settings, Reference fra : 4 frames Codec ID                       : V_MPEG4/ISO/AVC Duration                       : 46 min 43 s Bit rate mode                  : Variable Bit rate                       : 6 987 kb/s Maximum bit rate               : 20.0 Mb/s Width                          : 1 920 pixels Height                         : 1 080 pixels Display aspect ratio           : 16:9 Frame rate mode                : Constant Frame rate                     : 29.970 (29970/1000) FPS Original frame rate            : 29.970 (30000/1001) FPS Color space                    : YUV Chroma subsampling             : 4:2:0 Bit depth                      : 8 bits Scan type                      : Progressive Bits/(Pixel*Frame)             : 0.112 Stream size                    : 2.28 GiB (98%) Writing library                : x264 core 148 r2727 7d026e8 Encoding settings              : cabac=1 / ref=4 / deblock=1:0:0 / analyse=0x3:0x111 / me=umh / subme=10 / psy=1 / psy_rd=1.00:0.00 / mixed_ref=1 / me_range=120 / chroma_me=1 / trellis=2 / 8x8dct=1 / cqm=0 / deadzone=21,11 / fast_pskip=1 / chroma_qp_offset=-2 / threads=6 / lookahead_threads=1 / sliced_threads=0 / nr=0 / decimate=1 / interlaced=0 / bluray_compat=0 / stitchable=1 / constrained_intra=0 / bframes=16 / b_pyramid=2 / b_adapt=2 / b_bias=0 / direct=3 / weightb=1 / open_gop=0 / weightp=2 / keyint=300 / keyint_min=151 / scenecut=0 / intra_refresh=0 / rc_lookahead=250 / rc=crf / mbtree=1 / crf=16.0 / qcomp=0.50 / qpmin=6 / qpmax=51 / qpstep=4 / vbv_maxrate=20000 / vbv_bufsize=25000 / crf_max=0.0 / nal_hrd=vbr / filler=0 / ip_ratio=1.40 / aq=1:0.80 Default                        : Yes Forced                         : No  Audio ID                             : 2 Format                         : E-AC-3 Format/Info                    : Enhanced AC-3 Commercial name                : Dolby Digital Plus Codec ID                       : A_EAC3 Duration                       : 46 min 43 s Bit rate mode                  : Constant Bit rate                       : 128 kb/s Channel(s)                     : 2 channels Channel layout                 : L R Sampling rate                  : 48.0 kHz Frame rate                     : 31.250 FPS (1536 SPF) Compression mode               : Lossy Stream size                    : 42.8 MiB (2%) Language                       : Japanese Service kind                   : Complete Main Default                        : Yes Forced                         : No

文件信息 文件总数:2,文件总大小:2.3GB

 
  • Folder [MagicStar] Kimi no Hana ni Naru EP07 [WEBDL] [1080p] [Netflix] [JPN_SUB]
    • 视频文件 Kimi.no.Hana.ni.Naru.EP07.1080p.NF.WEB-DL.DDP2.0.H.264-MagicStar.mkv(2.3GB)
    • 字幕文件 Kimi.no.Hana.ni.Naru.EP07.1080p.NF.WEB-DL.DDP2.0.H.264-MagicStar.srt(63.3KB)
 

下载地址 磁力链接可以使用迅雷等主流软件进行下载

 
 

网友评论(0)

正在加载评论,请稍候......
发表我的看法(评论内容长度最多允许 1000 字)
评论内容
验证码