BT下载|动漫下载|动画|漫画 - 简单动漫

动漫bt下载 | 动画下载 | 动画片下载 | 资源搜索 | 发布资源 | 加入收藏

首页 » 日剧 » 【日影】[MagicStar] 风云儿 织田信长 / 風雲児 織田信長 1959 [WEBDL] [1080p] [U-NEXT]【生】

基本信息

共享用户: 简单动漫

发布时间: 2023/01/25 08:23:20

更新时间: 无更新

分享情况: 做种 , 下载 , 完成

健 康 度: 0

点击此处下载种子

使用磁力链下载

Tracker信息

Announce:

http://tracker.36dm.club:2710/announce

Scrape:

http://tracker.36dm.club:2710/scrape

Announce list:
  • http://www.36dm.club:2710/announce
  • http://tracker.36dm.club:2710/announce

资源介绍

HD 1080p from U-NEXT.


We are planning to upload all U-NEXT Dramas and Movies, we need your Support!


Support Us

Ali (Zhifubao / QR code):https://i.ibb.co/FWV2ggm/1660626347125.png PayPalMe:https://www.paypal.com/paypalme/sakuragikenji


alt text alt text

General Unique ID                      : 329446267810152703144621407091320709727 (0xF7D90B10BE0EEA91815A3DFBF4B4625F) Complete name                  : Fuunji.Oda.Nobunaga.1959.1080p.U-NEXT.WEB-DL.AAC2.0.H.264-MagicStar.mkv Format                         : Matroska Format version                 : Version 4 File size                      : 2.76 GiB Duration                       : 1 h 35 min Overall bit rate               : 4 151 kb/s Encoded date                   : UTC 2023-01-24 21:25:42 Writing application            : mkvmerge v50.0.0 ('Awakenings') 64-bit Writing library                : libebml v1.4.0 + libmatroska v1.6.2 Cover                          : Yes Attachments                    : cover.png  Video ID                             : 1 Format                         : AVC Format/Info                    : Advanced Video Codec Format profile                 : Main@L4 Format settings                : CABAC / 2 Ref Frames Format settings, CABAC         : Yes Format settings, Reference fra : 2 frames Codec ID                       : V_MPEG4/ISO/AVC Duration                       : 1 h 35 min Bit rate                       : 4 020 kb/s Width                          : 1 920 pixels Height                         : 1 080 pixels Display aspect ratio           : 16:9 Frame rate mode                : Constant Frame rate                     : 23.976 (24000/1001) FPS Original frame rate            : 23.976 (23976/1000) FPS Color space                    : YUV Chroma subsampling             : 4:2:0 Bit depth                      : 8 bits Scan type                      : Progressive Bits/(Pixel*Frame)             : 0.081 Stream size                    : 2.67 GiB (97%) Writing library                : x264 core 148 r2665kMod a01e339 Encoding settings              : cabac=1 / ref=2 / deblock=1:1:1 / analyse=0x1:0x111 / me=tesa / subme=11 / psy=1 / fade_compensate=0.00 / psy_rd=0.40:0.10 / mixed_ref=1 / me_range=48 / chroma_me=1 / trellis=2 / 8x8dct=0 / cqm=0 / deadzone=21,11 / fast_pskip=1 / chroma_qp_offset=-3 / threads=12 / lookahead_threads=1 / sliced_threads=0 / nr=0 / decimate=1 / interlaced=0 / bluray_compat=0 / constrained_intra=0 / fgo=0 / bframes=2 / b_pyramid=0 / b_adapt=2 / b_bias=0 / direct=3 / weightb=1 / open_gop=0 / weightp=2 / keyint=48 / keyint_min=25 / scenecut=0 / intra_refresh=0 / rc_lookahead=48 / rc=2pass / mbtree=1 / bitrate=4020 / ratetol=1.0 / qcomp=0.80 / qpmin=10 / qpmax=69 / qpstep=15 / cplxblur=20.0 / qblur=0.5 / vbv_maxrate=8050 / vbv_bufsize=8050 / nal_hrd=none / filler=0 / ip_ratio=1.40 / aq=2:0.60 Default                        : Yes Forced                         : No  Audio ID                             : 2 Format                         : AAC LC Format/Info                    : Advanced Audio Codec Low Complexity Codec ID                       : A_AAC-2 Duration                       : 1 h 35 min Bit rate                       : 125 kb/s Channel(s)                     : 2 channels Channel layout                 : L R Sampling rate                  : 48.0 kHz Frame rate                     : 46.875 FPS (1024 SPF) Compression mode               : Lossy Stream size                    : 85.3 MiB (3%) Title                          : 日本語 [オリジナル] Language                       : Japanese Default                        : Yes Forced                         : No

文件信息 文件总数:1,文件总大小:2.8GB

 
  • Folder [MagicStar] Fuunji Oda Nobunaga 1959 [WEBDL] [1080p] [U-NEXT]
    • 视频文件 Fuunji.Oda.Nobunaga.1959.1080p.U-NEXT.WEB-DL.AAC2.0.H.264-MagicStar.mkv(2.8GB)
 

下载地址 磁力链接可以使用迅雷等主流软件进行下载

 
 

网友评论(0)

正在加载评论,请稍候......
发表我的看法(评论内容长度最多允许 1000 字)
评论内容
验证码