BT下载|动漫下载|动画|漫画 - 简单动漫

动漫bt下载 | 动画下载 | 动画片下载 | 资源搜索 | 发布资源 | 加入收藏

首页 » 日剧 » [MagicStar] 陷入绝境的壹子只有成为精英领袖一条路可走 / 完全に詰んだイチ子はもうカリスマになるしかないの EP05 [WEBDL] [1080p] [AMZN]【生】

基本信息

共享用户: 简单动漫

发布时间: 2022/12/02 14:18:55

更新时间: 无更新

分享情况: 做种 , 下载 , 完成

健 康 度: 0

点击此处下载种子

使用磁力链下载

Tracker信息

Announce:

http://tracker.36dm.club:2710/announce

Scrape:

http://tracker.36dm.club:2710/scrape

Announce list:
  • http://www.36dm.club:2710/announce
  • http://tracker.36dm.club:2710/announce

资源介绍

HD 1080p from Prime Video. Use CBR bitrate mode.


We are planning to upload all prime video japan Dramas and Movies, we need your Support!


Support Us

Ali (Zhifubao / QR code):https://i.ibb.co/FWV2ggm/1660626347125.png PayPalMe:https://www.paypal.com/paypalme/sakuragikenji


alt text alt text

General Unique ID                      : 57387460359551886321638744608662246627 (0x2B2C6C3ED754B91FE15F3D639EA654E3) Complete name                  : Kanzen.ni.Tsunda.Ichiko.wa.Mou.Chari求爱a.ni.Naru.Shikanaino.EP05.1080p.AMZN.WEB-DL.DDP2.0.H.264-MagicStar.mkv Format                         : Matroska Format version                 : Version 4 File size                      : 1.46 GiB Duration                       : 23 min 14 s Overall bit rate mode          : Constant Overall bit rate               : 9 016 kb/s Encoded date                   : UTC 2022-12-02 03:43:12 Writing application            : mkvmerge v50.0.0 ('Awakenings') 64-bit Writing library                : libebml v1.4.0 + libmatroska v1.6.2 Cover                          : Yes Attachments                    : cover.png  Video ID                             : 1 Format                         : AVC Format/Info                    : Advanced Video Codec Format profile                 : High@L4 Format settings                : CABAC / 4 Ref Frames Format settings, CABAC         : Yes Format settings, Reference fra : 4 frames Codec ID                       : V_MPEG4/ISO/AVC Duration                       : 23 min 14 s Bit rate mode                  : Constant Bit rate                       : 8 788 kb/s Nominal bit rate               : 10 000 kb/s Width                          : 1 920 pixels Height                         : 1 080 pixels Display aspect ratio           : 16:9 Frame rate mode                : Constant Frame rate                     : 23.976 (24000/1001) FPS Color space                    : YUV Chroma subsampling             : 4:2:0 Bit depth                      : 8 bits Scan type                      : Progressive Bits/(Pixel*Frame)             : 0.177 Stream size                    : 1.43 GiB (97%) Default                        : Yes Forced                         : No Color range                    : Limited Color primaries                : BT.709 Transfer characteristics       : BT.709 Matrix coefficients            : BT.709  Audio ID                             : 2 Format                         : E-AC-3 Format/Info                    : Enhanced AC-3 Commercial name                : Dolby Digital Plus Codec ID                       : A_EAC3 Duration                       : 23 min 14 s Bit rate mode                  : Constant Bit rate                       : 224 kb/s Channel(s)                     : 2 channels Channel layout                 : L R Sampling rate                  : 48.0 kHz Frame rate                     : 31.250 FPS (1536 SPF) Compression mode               : Lossy Stream size                    : 37.2 MiB (2%) Language                       : Japanese Service kind                   : Complete Main Default                        : Yes Forced                         : No

文件信息 文件总数:1,文件总大小:1.5GB

 
  • Folder [MagicStar] Kanzen ni Tsunda Ichiko wa Mou Charisma ni Naru Shikanaino EP05 [WEBDL] [1080p] [AMZN]
    • 视频文件 Kanzen.ni.Tsunda.Ichiko.wa.Mou.Charisma.ni.Naru.Shikanaino.EP05.1080p.AMZN.WEB-DL.DDP2.0.H.264-MagicStar.mkv(1.5GB)
 

下载地址 磁力链接可以使用迅雷等主流软件进行下载

 
 

网友评论(0)

正在加载评论,请稍候......
发表我的看法(评论内容长度最多允许 1000 字)
评论内容
验证码