BT下载|动漫下载|动画|漫画 - 简单动漫

动漫bt下载 | 动画下载 | 动画片下载 | 资源搜索 | 发布资源 | 加入收藏

首页 » 日剧 » [MagicStar] 佐和子 ~无尽的复仇之路 / サワコ ~それは、果てなき復讐 EP07 [WEBDL] [1080p] [AMZN]【生】【附日字】

基本信息

共享用户: 简单动漫

发布时间: 2022/11/22 14:11:16

更新时间: 无更新

分享情况: 做种 , 下载 , 完成

健 康 度: 0

点击此处下载种子

使用磁力链下载

Tracker信息

Announce:

http://tracker.36dm.club:2710/announce

Scrape:

http://tracker.36dm.club:2710/scrape

Announce list:
  • http://www.36dm.club:2710/announce
  • http://tracker.36dm.club:2710/announce

资源介绍

HD 1080p from Prime Video. Use CBR bitrate mode. Japanese subtitles added.


We are planning to upload all prime video japan Dramas and Movies, we need your Support!


Support Us

Ali (Zhifubao / QR code):https://i.ibb.co/FWV2ggm/1660626347125.png PayPalMe:https://www.paypal.com/paypalme/sakuragikenji


alt text alt text

General Unique ID                      : 183871082075931342049965266791483324225 (0x8A5448440194EA3C5A5EEE49CABC3741) Complete name                  : Sawako.Sore.wa.Hatenaki.Fukushuu.EP07.1080p.AMZN.WEB-DL.DDP2.0.H.264-MagicStar.mkv Format                         : Matroska Format version                 : Version 4 File size                      : 2.09 GiB Duration                       : 44 min 24 s Overall bit rate mode          : Constant Overall bit rate               : 6 723 kb/s Encoded date                   : UTC 2022-11-15 08:49:23 Writing application            : mkvmerge v50.0.0 ('Awakenings') 64-bit Writing library                : libebml v1.4.0 + libmatroska v1.6.2 Cover                          : Yes Attachments                    : cover.png  Video ID                             : 1 Format                         : AVC Format/Info                    : Advanced Video Codec Format profile                 : High@L4 Format settings                : CABAC / 4 Ref Frames Format settings, CABAC         : Yes Format settings, Reference fra : 4 frames Codec ID                       : V_MPEG4/ISO/AVC Duration                       : 44 min 24 s Bit rate mode                  : Constant Bit rate                       : 6 487 kb/s Nominal bit rate               : 10 000 kb/s Width                          : 1 920 pixels Height                         : 1 080 pixels Display aspect ratio           : 16:9 Frame rate mode                : Constant Frame rate                     : 29.970 (29970/1000) FPS Original frame rate            : 29.970 (30000/1001) FPS Color space                    : YUV Chroma subsampling             : 4:2:0 Bit depth                      : 8 bits Scan type                      : Progressive Bits/(Pixel*Frame)             : 0.104 Stream size                    : 2.01 GiB (96%) Default                        : Yes Forced                         : No Color range                    : Limited Color primaries                : BT.709 Transfer characteristics       : BT.709 Matrix coefficients            : BT.709  Audio ID                             : 2 Format                         : E-AC-3 Format/Info                    : Enhanced AC-3 Commercial name                : Dolby Digital Plus Codec ID                       : A_EAC3 Duration                       : 44 min 24 s Bit rate mode                  : Constant Bit rate                       : 224 kb/s Channel(s)                     : 2 channels Channel layout                 : L R Sampling rate                  : 48.0 kHz Frame rate                     : 31.250 FPS (1536 SPF) Compression mode               : Lossy Stream size                    : 71.1 MiB (3%) Language                       : Japanese Service kind                   : Complete Main Default                        : Yes Forced                         : No

文件信息 文件总数:2,文件总大小:2.1GB

 
  • Folder [MagicStar] Sawako ~Sore wa, Hatenaki Fukushuu EP07 [WEBDL] [1080p] [AMZN] [JPN_SUB]
    • 视频文件 Sawako.Sore.wa.Hatenaki.Fukushuu.EP07.1080p.AMZN.WEB-DL.DDP2.0.H.264-MagicStar.mkv(2.1GB)
    • 字幕文件 Sawako.Sore.wa.Hatenaki.Fukushuu.EP07.1080p.AMZN.WEB-DL.DDP2.0.H.264-MagicStar.srt(32.7KB)
 

下载地址 磁力链接可以使用迅雷等主流软件进行下载

 
 

网友评论(0)

正在加载评论,请稍候......
发表我的看法(评论内容长度最多允许 1000 字)
评论内容
验证码