BT下载|动漫下载|动画|漫画 - 简单动漫

动漫bt下载 | 动画下载 | 动画片下载 | 资源搜索 | 发布资源 | 加入收藏

首页 » 日剧 » [MagicStar] 不幸的女孩! / アンラッキーガール! EP02 [WEBDL] [1080p] [HULU]【生】【附日字】

基本信息

共享用户: 简单动漫

发布时间: 2021/10/16 14:14:46

更新时间: 无更新

分享情况: 做种 , 下载 , 完成

健 康 度: 0

点击此处下载种子

使用磁力链下载

Tracker信息

Announce:

http://tracker.36dm.club:2710/announce

Scrape:

http://tracker.36dm.club:2710/scrape

Announce list:
  • http://www.36dm.club:2710/announce
  • http://tracker.36dm.club:2710/announce

资源介绍

HD 1080p from HULU JAPAN. alt text alt text

General Unique ID                      : 161135792155243036697749595844309548444 (0x79399FEDCF37495D36653AE541F1FD9C) Complete name                  : Unlucky.Girl.EP02.1080p.HULU.WEB-DL.AAC2.0.H.264-MagicStar.mkv Format                         : Matroska Format version                 : Version 4 File size                      : 1.23 GiB Duration                       : 43 min 7 s Overall bit rate               : 4 071 kb/s Encoded date                   : UTC 2021-10-15 22:04:08 Writing application            : mkvmerge v50.0.0 ('Awakenings') 64-bit Writing library                : libebml v1.4.0 + libmatroska v1.6.2 Cover                          : Yes Attachments                    : cover.png  Video ID                             : 1 Format                         : AVC Format/Info                    : Advanced Video Codec Format profile                 : High@L4 Format settings                : CABAC / 4 Ref Frames Format settings, CABAC         : Yes Format settings, Reference fra : 4 frames Codec ID                       : V_MPEG4/ISO/AVC Duration                       : 43 min 7 s Bit rate                       : 3 943 kb/s Width                          : 1 920 pixels Height                         : 1 080 pixels Display aspect ratio           : 16:9 Frame rate mode                : Constant Frame rate                     : 29.970 (29970/1000) FPS Original frame rate            : 29.970 (30000/1001) FPS Color space                    : YUV Chroma subsampling             : 4:2:0 Bit depth                      : 8 bits Scan type                      : Progressive Bits/(Pixel*Frame)             : 0.063 Stream size                    : 1.19 GiB (97%) Default                        : Yes Forced                         : No Color range                    : Limited Color primaries                : BT.709 Transfer characteristics       : BT.709 Matrix coefficients            : BT.709  Audio ID                             : 2 Format                         : AAC LC Format/Info                    : Advanced Audio Codec Low Complexity Codec ID                       : A_AAC-2 Duration                       : 43 min 7 s Bit rate                       : 125 kb/s Channel(s)                     : 2 channels Channel layout                 : L R Sampling rate                  : 48.0 kHz Frame rate                     : 46.875 FPS (1024 SPF) Compression mode               : Lossy Stream size                    : 38.7 MiB (3%) Language                       : Japanese Default                        : Yes Forced                         : No

文件信息 文件总数:2,文件总大小:1.2GB

 
  • Folder [MagicStar] Unlucky Girl EP02 [WEBDL] [1080p] [HULU] [JPN_SUB]
    • 视频文件 Unlucky.Girl.EP02.1080p.HULU.WEB-DL.AAC2.0.H.264-MagicStar.mkv(1.2GB)
    • 字幕文件 Unlucky.Girl.EP02.1080p.HULU.WEB-DL.AAC2.0.H.264-MagicStar.srt(46.2KB)
 

下载地址 磁力链接可以使用迅雷等主流软件进行下载

 
 

网友评论(0)

正在加载评论,请稍候......
发表我的看法(评论内容长度最多允许 1000 字)
评论内容
验证码